#TITLE:The Disappearance Of Hatsune Miku;
#SUBTITLE:;
#ARTIST:Hatsune Miku;
#TITLETRANSLIT:;
#SUBTITLETRANSLIT:;
#ARTISTTRANSLIT:;
#CREDIT:;
#BANNER:Hatsune Miku - Disappearance of Hatsune Miku-banner.jpg;
#BACKGROUND:Hatsune Miku - Disappearance of Hatsune Miku-bg.jpg;
#LYRICSPATH:Hatsune Miku - The Disappearance of Hatsune Miku.lrc;
#CDTITLE:CDTitle.png;
#MUSIC:Hatsune Miku - The Disappearance of Hatsune Miku.ogg;
#OFFSET:0.320;
#SAMPLESTART:56.460;
#SAMPLELENGTH:12.000;
#SELECTABLE:YES;
#BPMS:0.000=245.000;
#STOPS:;
#BGCHANGES:;
// cache tags:
#FIRSTBEAT:8.000;
#LASTBEAT:440.500;
#SONGFILENAME:songs/Vocaloid Party/Hatsune Miku - The Disappearance of Hatsune Miku/Hatsune Miku - The Disappearance of Hatsune Miku.sm;
#HASMUSIC:1;
#HASBANNER:1;
#MUSICLENGTH:108.605;
// end cache tags

//---------------dance-single - ----------------
#NOTES:
     dance-single:
     :
     Challenge:
     14:
     1.000,1.000,0.414,0.101,1.000,973.000,45.000,11.000,10.000,0.000:

0000
0000
0000
0000
,
0000
0000
0000
0000
,
0000
0000
0000
0000
,
0000
0000
0000
0000
,
0000
0000
0000
0000
,
0000
0000
0000
0000
,
0000
0000
0000
0000
,
0000
0000
0000
0000
,
0000
0000
0000
0000
,
0000
0000
0000
0000
,
0001
0010
0001
0100
0010
0100
0001
1000
0010
0100
0001
1000
,
0010
0100
0001
1000
0010
1000
0001
0100
0010
1000
0001
0100
,
0010
1000
0010
0100
0001
0010
0001
0010
0100
1000
0010
0100
,
0001
1000
0010
0100
0010
1000
0010
0100
0001
0100
0010
1000
,
0100
0010
0100
0010
0001
0100
0010
0100
0001
1000
0010
0100
,
0001
0100
0001
1000
0100
1000
0001
0100
0001
1000
0100
0010
,
0001
1000
0100
0010
0100
0010
0001
0100
0001
1000
0010
0100
,
0010
1000
0001
0100
0010
1000
0001
0100
0001
0100
0010
1000
,
0001
1000
0001
0010
0001
1000
0100
0010
0100
1000
0001
0100
,
0010
1000
0100
0010
0100
0010
0001
0100
0010
1000
0010
0100
,
0001
1000
0010
0100
0010
1000
0100
0010
0001
0100
0010
1000
,
0001
0100
0010
0100
0001
1000
0010
1000
0001
0100
0010
1000
,
0100
0010
0001
1000
0001
0100
0001
1000
0010
0100
0001
0010
,
0100
0010
0001
0010
0100
1000
0010
0100
0001
1000
0010
0100
,
0010
1000
0010
0100
0001
1000
0001
1000
0010
0100
0001
0010
,
0001
0000
0000
0000
1000
0000
0000
0000
0001
0000
0000
0000
1000
0000
0000
0000
0010
0000
0000
0000
1000
0000
0000
0000
0100
0000
0000
0000
0010
0000
0000
0000
0001
0000
0000
0000
0100
0000
0000
0001
0000
0000
0100
0000
0000
0001
0000
0000
,
0100
0000
0101
0000
0110
0000
0010
1000
,
0000
1000
0001
0000
1000
0100
0010
0001
,
0010
0100
1000
0010
0100
0001
1000
0100
,
0000
0000
0100
0000
0010
0000
0001
0000
0200
0000
0000
0000
0310
0000
1000
0100
,
0010
0000
0011
0000
1100
0000
1000
0100
,
0010
0000
0010
0001
0100
0001
0010
0001
,
1000
0000
0001
1000
0010
0100
0010
1000
,
0000
0000
0100
0000
0010
0001
0010
0100
1000
0100
0010
0001
0010
0100
1000
0000
,
0100
1100
1010
0110
,
1010
0000
1010
1000
0000
0001
1001
0000
,
1010
0110
0101
1010
,
0011
0000
0011
0010
0000
0010
0110
1000
,
1100
1001
0101
1010
,
1001
0000
1001
0100
0000
0010
1001
0000
,
1010
0110
0101
1100
,
0011
0000
0011
1000
0000
0001
1000
0010
,
0110
0001
1000
0001
1000
0001
1000
0001
,
1000
0100
1000
0100
1000
0100
1000
0100
,
1000
0010
1000
0010
1000
0010
1000
0010
,
1000
0001
0100
0010
0100
0001
1000
0010
,
0100
0001
0100
0001
0010
0100
0010
0100
,
1000
0010
1000
0010
0100
0001
0100
0001
,
0100
0010
1000
0010
0100
0001
0010
0100
,
0010
0010
0010
0001
0100
0100
0100
0000
,
0M0M
0000
1100
0000
0100
0010
0001
0000
,
1100
0000
0101
0000
0100
0010
0100
0001
,
0100
0001
0100
0001
1000
0010
0100
0010
,
0100
0010
0100
0010
1000
0100
1000
0001
,
1000
0001
1000
0001
0100
0010
1000
0001
,
0100
0010
1000
0001
1001
0000
2000
30M2
,
M203
03M2
2M03
30M2
M203
032M
2M30
3000
,
0101
0000
0101
0000
0101
0000
1000
0100
1000
0010
0100
0001
,
0010
0100
1000
0010
0100
0010
1000
0100
0010
0001
1000
0100
,
0010
0001
0100
0010
1000
0001
0100
0010
0100
0001
0010
0100
,
0010
0001
1000
0001
1000
0001
0100
0010
1000
0100
1000
0010
,
1000
0001
0100
0001
1000
0001
0100
0010
1000
0001
0100
0010
,
1000
0100
0010
0001
0010
0001
1000
0100
0010
0100
0010
0001
,
0100
0010
1000
0010
0100
0001
1000
0010
0100
0001
0100
0010
,
0100
0010
1000
0001
0010
0100
1000
0100
0010
0100
1000
0001
,
1000
0001
0100
0001
1000
0100
1000
0010
0100
0001
0010
0001
,
0010
0001
1000
0100
0010
0001
1000
0100
0010
0100
1000
0001
,
0100
0001
1000
0010
1000
0010
0100
0001
0010
0100
1000
0010
,
0100
0010
1000
0001
0010
0100
0010
0001
1000
0010
0100
0010
,
1000
0100
0010
0100
1000
0001
1000
0100
0010
0100
1000
0001
,
0100
0010
1000
0100
0010
0001
0100
0010
1000
0010
0100
0001
,
1000
0010
1000
0001
0100
0010
1000
0001
0100
0010
1000
0001
,
1000
0010
0100
0001
0100
0010
0100
0001
0100
0001
0010
0100
,
0010
0001
1000
0010
0100
0010
1000
0100
0010
0001
1000
0010
,
0100
0001
0100
0010
1000
0100
1000
0001
0100
0010
0100
0010
,
1000
0001
0100
0001
1000
0100
1000
0010
0100
0001
0010
0100
,
1000
0010
1000
0010
0100
0001
0010
0001
1000
0010
0100
0010
,
1000
0010
0100
0001
0100
0010
1000
0001
0010
0100
1000
0100
,
1000
0010
0100
0001
1000
0100
0010
0001
0100
0001
0010
0100
,
1000
0100
1000
0010
0100
0001
1000
0010
0100
0001
0010
0100
,
1000
0010
0100
0001
0010
0100
1000
0100
0010
0001
0100
0010
,
1000
0001
0010
0100
1000
0010
0100
0001
1000
0100
0010
0100
,
0010
0001
1000
0100
0010
0001
0100
0010
1000
0100
0010
0100
,
0010
0100
1000
0100
1000
0010
0100
0010
1000
0100
0010
0100
,
1000
0001
0100
0010
1000
0010
0100
0010
0100
0001
1000
0010
,
0100
0001
1000
0001
0010
0100
1000
0010
0100
0001
0010
0100
,
1000
0010
0100
0010
0100
0001
1000
0001
0100
0010
1000
0100
,
0010
0100
1000
0010
0100
0010
1000
0100
0010
0001
0100
0010
,
1000
0100
1000
0010
1000
0100
0010
0001
0010
0100
1000
0001
,
0100
0010
1000
0100
0010
0001
0010
0001
1000
0100
1000
0100
,
0010
0001
0010
0100
1001
0010
0100
0010
,
1000
0001
0100
0001
0110
1000
0001
0010
,
0001
1000
0001
0100
1010
0010
1000
0100
,
1000
0010
0200
0000
0301
0000
0010
0100
,
0010
0001
0010
0100
0011
0001
0101
0000
,
0100
0010
0100
0001
1001
1000
1100
0000
,
0100
0010
0001
1000
0010
0100
0001
0010
,
0100
0000
1000
0000
0010
0000
0100
0000
0001
0010
0100
1000
0001
0010
0100
1000
,
0001
0000
0010
0000
0100
1000
0100
0000
0010
0000
0100
0000
1000
0001
1000
0000
,
0010
0000
1000
0000
0001
0100
0001
0000
1000
0000
0001
0000
0010
0100
0010
0000
,
0001
0000
1000
0000
0010
1000
0010
0000
0100
0000
0010
0000
0100
0010
0100
0000
,
0010
0000
1000
0000
0010
0100
0010
0000
1000
0000
0001
0000
0100
0001
0100
0000
,
0001
0100
0010
0000
1000
0010
0100
0000
0001
0100
0010
0000
1000
0010
0100
0000
,
0001
1000
0010
0000
1000
0001
0100
0000
0001
1000
0010
0000
1000
0001
0100
0000
,
0001
0100
0001
0100
0001
0100
0010
1000
0010
1000
0010
1000
0001
0100
0001
0100
,
0001
0100
0001
0010
0100
1000
0001
0010
0100
1000
0100
0010
0001
0010
0100
1000
,
0010
0000
0000
0000
0000
0100
0000
0001
0000
0000
0100
0001
,
0000
1000
0000
0010
0100
0000
0010
0000
0000
0000
0000
0000
,
0000
0000
0000
0000
0000
0000
0000
0000
1000
0000
0001
1000
,
0001
0000
0100
0000
0010
0000
0000
0000
0000
0000
0100
0000
0001
0000
0000
0000
0100
0000
0000
0000
0000
0010
0000
1000
,
0000
0010
0000
0000
0000
0000
0000
0000
;

//---------------dance-single - ----------------
#NOTES:
     dance-single:
     :
     Beginner:
     1:
     0.091,0.304,0.074,0.018,0.000,59.000,8.000,2.000,0.000,0.000:
0000
0000
0000
0000
,
0000
0000
0000
0000
,
0000
0000
0000
0000
,
0000
0000
0000
0000
,
0000
0000
0000
0000
,
0000
0000
0000
0000
,
0000
0000
0000
0000
,
0000
0000
0000
0000
,
0000
0000
0000
0000
,
0000
0000
0000
0000
,
1000
0000
0000
0000
,
0000
0000
0000
0000
,
0001
0000
0000
0000
,
0000
0000
0000
0000
,
0010
0000
0000
0000
,
0000
0000
0000
0000
,
0100
0000
0000
0000
,
0000
0000
0000
0000
,
1000
0000
0000
0000
,
0000
0000
0000
0000
,
0001
0000
0000
0000
,
0000
0000
0000
0000
,
0010
0000
0000
0000
,
0000
0000
0000
0000
,
0001
0000
0000
0000
,
0000
0000
0000
0000
,
1010
0000
0000
0000
,
0000
0000
0000
0000
,
1000
0000
0000
0000
,
0000
0000
0000
0000
,
0001
0000
0000
0000
,
0000
0000
0000
0000
,
0010
0000
0000
0000
,
0000
0000
0000
0000
,
1001
0000
0000
0000
,
0000
0000
0000
0000
,
0001
0000
0000
0000
,
0000
0000
0000
0000
,
0100
0000
0000
0000
,
0000
0000
0000
0000
,
0010
0000
0000
0000
,
0000
0000
0000
0000
,
1000
0000
0000
0000
,
1000
0000
0000
0000
,
1000
0000
0000
0000
,
1000
0000
0000
0000
,
0001
0000
0000
0000
,
0001
0000
0000
0000
,
0001
0000
0000
0000
,
0001
0000
0000
0000
,
0000
0000
0000
0000
,
0000
0000
0000
0000
,
1000
0000
0000
0000
,
0000
0000
0000
0000
,
0010
0000
0000
0000
,
0000
0000
0000
0000
,
0000
0000
0000
0000
,
0100
0000
0000
0000
,
0001
0000
0000
0000
,
0000
0000
0000
0000
,
0100
0000
0000
0000
,
0000
0000
0000
0000
,
0010
0000
0000
0000
,
0000
0000
0000
0000
,
1000
0000
0000
0000
,
0000
0000
0000
0000
,
0010
0000
0000
0000
,
0000
0000
0000
0000
,
0100
0000
0000
0000
,
0000
0000
0000
0000
,
0001
0000
0000
0000
,
0000
0000
0000
0000
,
1000
0000
0000
0000
,
0000
0000
0000
0000
,
0010
0000
0000
0000
,
0000
0000
0000
0000
,
0100
0000
0000
0000
,
0000
0000
0000
0000
,
0001
0000
0000
0000
,
0000
0000
0000
0000
,
1000
0000
0000
0000
,
0000
0000
0000
0000
,
0001
0000
0000
0000
,
0000
0000
0000
0000
,
1000
0000
0000
0000
,
0000
0000
0000
0000
,
0010
0000
0000
0000
,
0000
0000
0000
0000
,
1000
0000
0000
0000
,
0001
0000
0000
0000
,
0011
0000
0000
0000
,
0000
0000
0000
0000
,
1001
0000
0000
0000
,
0000
0000
0000
0000
,
0001
0000
0000
0000
,
0001
0000
0000
0000
,
0100
0000
0000
0000
,
0100
0000
0000
0000
,
0010
0000
0000
0000
,
1000
0000
0000
0000
,
0010
0000
0000
0000
,
1000
0000
0000
0000
,
0001
0000
0000
0000
,
0110
0000
0000
0000
,
0110
0000
0000
0000
,
1001
0000
0000
0000
,
2002
0000
0000
0000
,
0000
0000
0000
0000
,
0000
0000
0000
0000
,
0000
0000
0000
0000
,
3003
0000
0000
0000
;

//---------------dance-single - ----------------
#NOTES:
     dance-single:
     :
     Medium:
     9:
     0.764,0.830,0.663,0.064,0.000,502.000,72.000,7.000,40.000,0.000:
0000
0000
0000
0000
,
0000
0000
0000
0000
,
1010
0000
0000
0110
0000
0000
0100
0010
,
1000
0000
1000
0000
0001
0000
0001
1000
,
0100
0000
0000
0110
0000
1000
0010
0000
,
0100
0001
0100
0001
,
0100
0000
0000
0000
1001
0000
0000
0001
,
0010
0100
0000
1000
0000
1000
0010
0100
,
0001
0000
0000
0000
0101
0000
0000
0010
,
1000
0100
1000
0010
0100
0010
1000
0000
,
0101
0000
0000
1100
0000
0000
1000
0010
,
0100
0000
0010
0000
1000
0000
1000
0100
,
0010
0000
0000
1100
0000
1000
0001
0000
,
0010
0100
1000
0010
,
0100
0000
0MM0
0000
0110
0000
0000
0001
,
1000
0001
0000
0001
0000
0001
0100
0000
,
0010
1000
0100
0010
0001
0100
0010
1000
,
0010
1000
0100
0010
0001
0100
0001
0000
,
1100
0000
0000
1001
0000
0000
0010
1000
,
0100
0000
1000
0000
0100
0000
0100
1000
,
0001
0000
0000
0101
0000
0001
1000
0000
,
0100
0010
0100
1000
,
0001
0000
M00M
0000
1010
0000
0000
0010
,
0100
0010
0000
0010
0000
0010
1000
0000
,
0001
0100
0010
1000
,
0001
0000
0100
0000
0010
1000
0100
0010
,
0200
0000
2300
0000
3002
0000
0103
0010
,
0000
0010
1000
0000
0001
1000
0100
0010
,
0100
0000
1000
0000
0101
0000
1000
0100
,
0000
1000
0001
0000
0100
0000
0010
0000
,
1010
0000
M010
0000
01M0
0000
1000
0001
,
0010
0001
0100
0000
0010
0000
0110
0000
,
1000
0000
0001
1000
0010
0100
0001
0200
,
0000
0000
0310
0100
0010
0100
0010
1000
,
0010
0000
0100
0001
0000
0000
00M0
0000
,
1000
0001
0100
0010
,
1010
0000
0000
0101
0000
0000
0110
0000
,
0000
M000
0000
000M
0000
0000
1000
0100
,
0010
0000
0000
000M
0000
0000
0001
1000
,
0100
00M0
0110
M000
,
1010
000M
0101
M000
,
1001
00M0
0110
0000
,
1010
0000
1010
0000
1000
0010
1000
0100
,
0010
0000
M110
0000
0010
0100
1000
0000
,
0101
0000
0101
0000
0001
0010
0001
0010
,
0100
0000
01M1
0000
0100
0010
1000
0000
,
0110
0000
0110
0000
0010
0100
0001
1000
,
0001
0000
1M01
0000
0001
0100
0010
0000
,
1000
0100
0010
0000
0001
0100
0010
0000
,
1000
0001
0100
0010
1000
0001
M00M
0000
,
0000
0000
1100
0000
1000
0001
0100
0000
,
0010
1000
0001
0100
0010
1000
0001
0000
,
0011
0000
0001
M010
0001
0M10
0001
0000
,
0110
0000
0010
010M
0010
M100
0010
0000
,
1100
0000
1000
010M
1000
01M0
1000
0000
,
0100
1000
0010
0000
M010
0000
0100
0001
,
0100
0001
0100
0001
0100
0001
0100
0000
,
0010
1010
0100
0101
,
1010
0000
0000
0110
0000
0000
0001
0010
,
0100
0000
1000
0000
0101
0000
0100
0001
,
0010
0000
0000
0101
0000
0100
0010
0000
,
1000
0110
0100
0011
,
0001
0000
00MM
0000
1010
0000
0000
1000
,
0001
0100
0000
0010
0000
1000
0001
0000
,
0100
0010
1000
0010
,
0100
0010
1000
0001
0010
0100
1000
0000
,
0011
0000
0000
0110
0000
0000
0001
0010
,
0100
0000
1000
0000
0110
0000
0001
0100
,
0010
0000
0000
1001
0000
0010
1000
0000
,
0100
1010
0100
0011
,
0100
0000
0M0M
0000
1100
0000
0000
0010
,
0100
0001
0000
1000
0000
0001
0100
0000
,
0010
0100
0010
1000
0010
0100
0001
0010
,
0001
0100
0010
1000
0010
1000
0100
0000
,
1001
0000
0000
1010
0000
0000
0100
0001
,
0010
0000
0101
0000
0010
0000
1000
0010
,
0100
0000
0000
0101
0000
0010
0100
0000
,
0001
1010
0100
0110
,
0001
0000
1000
0000
0100
0000
0000
1000
,
0010
0100
0000
0001
0000
0100
0001
0000
,
1000
0001
0010
0001
,
0011
0000
10M1
0000
0100
0010
0100
0001
,
0100
0010
01M1
0100
,
1M10
0001
110M
1000
,
M011
0100
1M01
1000
,
M110
0001
101M
0100
,
0M11
0000
1000
0100
1000
0000
1000
0010
,
0100
0000
0100
0001
0010
0000
0010
0100
,
0010
0000
0010
0001
1000
0010
0100
0000
,
0001
0010
0100
0010
0100
1000
0100
0000
,
1001
0000
0001
1000
0000
0000
0001
0000
,
1000
0100
0010
0001
0000
0000
0100
0000
,
0001
0010
0100
1000
0000
0000
0010
0000
,
1000
0001
1000
0010
0100
0001
0100
0000
,
0001
0010
0000
0110
0000
1000
0100
0000
,
1000
0000
0010
0000
0100
0010
1000
0000
,
0001
0010
0000
1100
0000
0001
0010
0000
,
0100
0000
1000
0000
0001
0100
0010
1000
,
0100
1000
0010
1000
,
0001
0100
0010
1000
,
0001
1000
0010
0100
,
0010
0000
1000
0000
0001
0010
0100
0000
,
0010
0000
0001
0010
0001
0100
0010
0000
,
1000
0000
0100
1000
0001
0010
0100
0000
,
0020
0000
0000
0032
0000
0000
2003
0000
,
3010
1000
0100
1000
0001
0100
0001
1000
,
0010
0000
0000
0000
;

//---------------dance-single - ----------------
#NOTES:
     dance-single:
     :
     Hard:
     11:
     0.976,1.000,0.488,0.414,0.373,642.000,53.000,45.000,99.000,2.000:
0000
0000
0000
0000
,
0000
0000
0000
0000
,
0000
0000
0000
0000
,
0000
0000
0000
0000
,
0000
0000
0000
0000
,
0000
0000
0000
0000
,
0000
0000
0000
0000
,
0000
0000
0000
0000
,
0022
0033
0000
0000
0220
0330
0000
0000
,
2000
3000
2000
3000
2000
3000
2000
3000
,
1010
0000
0010
M000
0100
0000
0010
000M
,
1001
0000
1000
0M00
0010
0000
0100
000M
,
1010
0000
0001
00M0
1000
0000
0100
M000
,
1001
0000
0010
000M
1100
0000
0001
0M00
,
0011
0010
010M
1000
0100
0010
M100
0001
,
0100
1000
001M
0100
1000
0100
00M1
1000
,
0100
0001
M100
0010
0100
1000
001M
0100
,
1000
0000
0100
0000
001M
0000
0100
0000
0001
0000
1000
0000
0010
0100
0010
0100
,
0010
0000
1M00
0000
0001
0000
M100
0110
,
0000
100M
0010
1M00
,
0100
M010
0001
01M0
,
0010
0000
0000
0000
01M0
0000
0000
0000
0001
0000
0000
0000
M110
0000
0010
0100
,
0001
001M
0100
1M00
,
0001
0000
1000
0110
M000
0001
0110
0000
,
01M0
0001
0010
0100
M001
0100
1000
0010
,
010M
1000
0100
0001
1M00
0020
0230
0000
,
0310
0000
0100
0000
0001
0000
1000
1010
,
0000
0000
0000
0000
0010
0100
0010
1000
,
0010
0100
0001
1000
0010
0001
0010
0100
,
0000
0001
1000
0010
0100
0000
0010
0000
,
0200
0000
0302
0000
2003
0000
3001
0100
,
0001
0000
1000
0010
0100
0010
1010
0000
,
0002
0000
1003
0001
0100
0010
0001
0010
,
0000
1000
0001
0000
0100
0001
0100
0010
,
1010
0000
0020
0030
0200
0310
2000
3000
,
0102
0003
2000
3010
0000
1000
0200
0310
,
0002
0003
2000
3000
0120
0030
0200
0300
,
0002
1003
2000
3100
0020
0130
0210
0300
,
0012
0003
2000
3000
0020
1030
0200
0300
,
0120
0030
0002
0103
0000
0010
2000
3100
,
0020
0030
0201
0300
0020
0030
2000
3000
,
0002
1003
2000
3100
0010
0100
0210
0300
,
0001
1000
M001
0000
0010
0001
010M
0000
,
0010
1000
0100
0010
0100
1000
M001
0000
,
0100
0010
10M0
0000
0010
1000
M100
0000
,
1000
0010
0100
0010
0100
0001
100M
0000
,
0001
1000
M010
0000
0100
0010
10M0
0000
,
0100
0001
0100
1000
0010
0100
0M10
0000
,
1100
0000
0101
0000
1000
0010
0100
0010
,
0001
0010
0100
0010
1000
0010
0100
0000
,
0000
0001
0100
0001
0100
0000
0000
0000
0001
0000
0010
0000
0100
0000
0000
0000
,
1000
0100
0010
0000
0100
1000
0100
0010
,
0M01
1000
0100
0010
010M
1000
0010
0000
,
1M00
0001
M100
0010
100M
0010
M100
0000
,
001M
1000
010M
0010
M100
1000
00M1
0100
,
001M
1000
0M10
1000
1100
0000
0000
0000
,
0111
0000
0000
M11M
0000
0000
1110
0000
,
MMM1
0000
0010
0000
0100
0000
1000
0100
0000
0010
0100
0000
,
1000
0000
0M10
0000
0100
0000
001M
1010
,
0000
M010
1000
00M1
,
0100
0M10
1000
00M1
,
0100
0000
0000
0000
M010
0000
0000
0000
1000
0000
0000
0000
10M1
0000
0001
1000
,
0010
1M00
0001
M010
,
0100
0000
1000
0110
M000
0010
0011
0000
,
0100
0M10
1000
00M1
,
1000
0000
0100
0000
1000
0000
0010
0000
0100
0010
0100
0010
1000
0001
1000
0001
,
1000
0M00
0010
0000
1000
0M00
0001
0110
,
0000
000M
0100
0000
0010
0M00
1000
0000
,
0001
0M00
0010
0000
0100
000M
0010
0000
,
0001
0000
00M0
0000
0100
0000
0000
0000
0010
0000
000M
0000
1100
0000
0100
1000
,
0010
000M
0100
0000
0001
M000
0100
0000
,
0001
0M00
0010
0101
0000
M100
1010
0000
,
0001
0M00
0010
0000
0100
00M0
1000
0000
,
0010
0000
0100
0000
1000
0000
0100
0000
0001
0010
0001
0010
0100
1000
0100
1000
,
0100
0010
1000
0010
0001
0010
0100
0000
,
0110
0001
0100
1000
0100
0010
0100
0000
,
1010
1000
0001
0100
1000
0100
0001
0100
,
0101
0100
0010
0001
0010
1000
0010
0000
,
0110
0010
1000
0010
0100
0001
0100
0000
,
0011
0010
0100
1000
0010
0100
0001
0000
,
0110
0010
1000
0100
0010
0001
0100
0001
,
1001
0000
1000
0000
0001
0000
0100
0000
0001
0010
0100
1000
0001
0010
0100
1000
,
0001
1000
0001
1000
0001
1000
0001
1000
0001
1000
0000
0000
,
0010
0100
0010
0100
0010
0100
0010
0100
0010
0100
0000
0000
,
1000
0100
1000
0100
1000
0100
1000
0100
1000
0100
0000
0000
,
0010
0001
0010
0001
0010
0001
0010
0001
0010
0001
0000
0000
,
0100
0001
0100
0001
0100
0001
0100
0001
0100
0001
0000
0000
,
1000
0010
1000
0010
1000
0010
1000
0010
1000
0010
0000
0000
,
1000
0100
0010
0001
1000
0100
0010
0001
1000
0100
0010
0001
,
0010
0100
1000
0001
0010
0100
1000
0001
0010
0100
1000
0001
,
0100
0010
0100
0010
1000
0010
1000
0000
,
0100
0010
0100
1000
0200
0300
0110
0000
,
0001
0010
0100
0010
0001
1000
0100
0000
,
1000
0010
0100
0010
2000
3000
1010
0000
,
0001
1000
0100
0000
0100
1000
0010
0000
,
0010
0100
0001
0000
0001
1000
0010
0000
,
0010
0100
0001
0000
0001
0100
0010
0000
,
0100
0000
0001
0000
1000
0000
0010
0000
1000
0010
1000
0010
1000
0000
0000
0000
,
M11M
0100
0010
0100
0010
0100
M11M
0000
,
1M1M
0010
1000
0010
1000
0010
1M1M
0000
,
1MM1
0001
1000
0001
1000
0001
1MM1
0000
,
M1M1
0100
0001
0100
0001
0100
M1M1
0000
,
1000
0100
0001
0100
1000
0010
0100
1000
,
0100
0010
0001
0010
1000
0100
0010
0100
,
1000
0001
0100
1000
0100
1000
0100
0010
,
1000
0000
0001
0000
0100
0000
0010
0000
1000
0001
1000
0001
1000
0001
1000
0001
,
2000
0000
0000
0000
,
0000
0000
0000
0000
,
0000
0000
0000
0000
,
0000
0000
0000
3000
;

//---------------dance-single - ----------------
#NOTES:
     dance-single:
     :
     Easy:
     5:
     0.253,0.439,0.129,0.018,0.000,176.000,14.000,2.000,0.000,0.000:
0000
0000
0000
0000
,
0000
0000
0000
0000
,
0000
0000
0000
0000
,
0000
0000
0000
0000
,
0000
0000
0000
0000
,
0000
0000
0000
0000
,
0000
0000
0000
0000
,
0000
0000
0000
0000
,
0000
0000
0000
0000
,
0000
0000
0000
0000
,
1000
0000
0000
0000
,
0001
0000
0000
0000
,
0100
0000
0000
0000
,
0001
0000
0110
0000
,
1000
0000
0000
0000
,
0010
0000
0000
0000
,
0100
0000
0000
0000
,
0001
0000
0100
0000
,
0010
0000
0000
0000
,
1000
0000
0000
0000
,
0001
0000
0000
0000
,
0100
0000
1010
0000
,
0001
0000
0000
0000
,
1000
0000
0000
0000
,
0001
0000
0000
0000
,
0100
0000
0001
1000
,
0010
0000
1000
0100
,
0000
0000
0010
0000
,
0001
0000
1000
0100
,
0000
0010
0001
0100
,
0001
0000
1000
0000
,
0010
0000
0100
0000
,
0010
0000
1000
0010
,
0000
0000
0000
0000
,
0100
0000
0000
0000
,
0001
0000
0000
0000
,
1000
0000
0010
0000
,
0100
0000
0000
0000
,
0001
0000
0000
0000
,
1000
0000
0000
0000
,
0010
0000
0000
0000
,
0100
0000
0001
0000
,
1000
0000
0000
0000
,
0110
0000
0000
0000
,
0001
0000
0000
0000
,
1001
0000
0000
0000
,
0100
0000
0000
0000
,
0101
0000
0000
0000
,
0010
0000
0000
0000
,
1100
0000
1000
0000
,
0000
0000
0001
0000
,
1000
0000
0010
0000
,
0100
0000
0010
0100
,
0010
0000
1000
0001
,
1000
0000
0010
1000
,
0010
0000
0100
0001
,
0100
0000
0010
0000
,
2000
3000
0200
0300
,
0010
0000
0000
0000
,
0001
0000
0000
0000
,
1000
0000
0010
0000
,
0100
0000
0001
0000
,
1000
0000
0000
0000
,
0001
0000
0000
0000
,
0100
0000
0001
0000
,
1000
0000
0010
0000
,
0100
0000
0000
0000
,
1001
0000
0000
0000
,
0100
0000
0010
0000
,
1000
0000
1000
0000
,
1000
0000
0000
0000
,
0010
0000
0000
0000
,
0100
0000
0001
0000
,
1000
0000
0001
0000
,
0110
0000
0000
0000
,
1000
0000
0001
0000
,
0100
0000
0000
0000
,
0010
0000
1000
0000
,
0100
0000
0000
0000
,
0010
0000
0001
0000
,
1000
0000
0000
0000
,
0010
0000
1000
0000
,
0010
0000
1010
0000
,
0100
0000
1001
0000
,
0010
0000
0110
0000
,
0001
1000
0010
0100
,
0001
0000
0101
0000
,
0001
0000
0110
0000
,
1000
0000
1010
0000
,
0100
0001
1000
0010
,
0100
0000
0010
0000
,
1000
0000
0001
0000
,
0100
0000
0010
0000
,
1000
0000
0001
0000
,
0100
0010
0100
0000
,
0001
1000
0010
0000
,
1000
0010
1000
0000
,
0001
0100
0010
1000
,
0010
0000
1000
0000
,
0010
0000
0100
0000
,
0001
0000
1000
0000
,
0010
0000
0100
0000
,
0001
1000
0001
0000
,
0100
0010
0100
0000
,
0001
0010
0100
1000
,
0100
0010
0001
1000
,
0001
0000
0000
0000
;
